No preview

revenge s02e19 hdtv x264 lol vtv.torrent

239.41 MiB
Health
1 / 0
Created
2013-03-31 05:11:54

Please share....Dont hit and run...Seed it back at least once. Of course, if you want to seed it back more than once, that would be ok too

Torrents Downloader previewFind. Download. Play!

INSTALL OUR FREE
TORRENTS DOWNLOADER

for Windows

Torrent files

Torrent information

  • Name
    revenge s02e19 hdtv x264 lol vtv
  • Type
    Video
  • Category
  • Trackers
    http://tracker.thepiratebay.org/announce
    udp://tracker.openbittorrent.com:80
    udp://tracker.ccc.de:80
    udp://tracker.publicbt.com:80
    udp://tracker.istole.it:80
    http://fr33dom.h33t.com:3310/announce
  • Title
  • Comments
    Torrent downloaded from http://thepiratebay.se
  • Hash
    42CB9815151AE7035F949EBEFFB43FC7F346CA5A
  • Providers

Torrent description

-------------------------------------------------------------------
Please share....Dont hit and run...Seed it back at least once.
Of course, if you want to seed it back more than once, that would be ok too
-------------------------------------------------------------------
QUALITY: PERFECT 10/10
All details are here:
Format | AVI Language | ENGLISH
Source | DVD PAL Subs | NONE
QUALITY: PERFECT 10/10
- Video
ID : 0
Format : MPEG-4 Visual
Format profile : Advanced Simple@L5
Format settings, BVOP : Yes
Format settings, QPel : No
Format settings, GMC : No warppoints
Format settings, Matrix : Default (H.263)
Muxing mode : Packed bitstream
Codec ID : XVID
Codec ID/Hint : XviD
Bit rate : 1 345 Kbps
Width : 720 pixels
Height : 314 pixels
Display aspect ratio : 2.25:1
Frame rate : 29.970 fps
Color space : YUV
Chroma subsampling : 4:2:0
Bit depth : 8 bits
Scan type : Progressive
Compression mode : Lossy
Bits/(Pixel*Frame) : 0.198
Stream size : 1.19 GiB (87%)
Writing library : XviD 1.1.0 (UTC 2005-11-22)
- Audio
ID : 1
Format : AC-3
Format/Info : Audio Coding 3
Mode extension : CM (complete main)
Codec ID : 2000
Bit rate mode : Constant
Bit rate : 192 Kbps
Channel(s) : 2 channels
Channel positions : Front: L R
Sampling rate : 48.0 KHz
Bit depth : 16 bits
Compression mode : Lossy
Stream size : 175 MiB (12%)
Alignment : Aligned on interleaves
Interleave, duration : 33 ms (1.00 video frame)
Interleave, preload duration : 512 ms