Preview takkari donga telugu movie mahesh babu bipasa basu

takkari donga telugu movie mahesh babu bipasa basu.torrent

1.20 GiB
Health
1 / 3
Created
2013-02-19 08:32:23
Torrents Downloader previewFind. Download. Play!

INSTALL OUR FREE
TORRENTS DOWNLOADER

for Windows

Torrent files

Torrent information

  • Name
    takkari donga telugu movie mahesh babu bipasa basu
  • Type
    Video
  • Category
  • Trackers
    http://tracker.thepiratebay.org/announce
    udp://tracker.openbittorrent.com:80
    udp://tracker.torrentbox.com:2710
    udp://tracker.ccc.de:80
    udp://inferno.demonoid.com:3400
    udp://tracker.istole.it:80
    udp://tracker.publicbt.com:80
    http://tracker.youbroadband.in:55551/announce
    udp://fr33dom.h33t.com:3310/announce
    http://fr33dom.h33t.com:3310/announce
    http://pow7.com/announce
    udp://tracker.1337x.org:80/announce
    http://tracker.novalayer.org:6969/announce
    udp://fr33domtracker.h33t.com:3310/announce
    http://tracker1.wasabii.com.tw:6969/announce
    http://tracker.beeimg.com:6969/announce
    http://9.rarbg.com:2710/announce
    http://tracker.coppersurfer.tk:6969/announce
    http://cpleft.com:2710/announce
    http://open.seed-it.org:6969/announce
    http://exodus.desync.com:6969/announce
    http://bt1.cdres.cn:12345/announce
    http://torrentsdesi.com:6883/announce
    http://mpggalaxy.mine.nu:6969/announce
    http://tracker.deadfrog.us:42426/announce
    http://moviesb4time.biz/announce.php
    http://tracker.paradise-tracker.com:12000/announce
    http://www.h33t.com:3310/announce
    http://bt1.the9.com:6969/announce
    http://www.ipmart-forum.com:2710/announce
    http://www.torrent-downloads.to:2710/announce
    http://tracker.bitebbs.com:6969/announce
    http://www.torrentvideos.com:6969/announce
    http://t.ppnow.net:2710/announce
    http://tracker.torrenty.org:6969/announce
    http://tracker.hexagon.cc:2710/announce
    http://tracker.deluxebits.to:3552/announce
    http://track.sextorrent.to:2710/announce
    http://tracker.xpear.de:6969/announce
    http://bitflip.dynalias.net:8990/announce
  • Title
  • Comments
    Torrent downloaded from http://thepiratebay.se
  • Genre
    Action
  • Hash
    84D50B96B28BB5148B0DA8E6F3FC1BC20093A0E2
  • Providers

Torrent description

General
Format : Flash Video
File size : 1.21 GiB
Duration : 2h 45mn
Overall bit rate : 1 046 Kbps
httphostheader : r2---sn-ci5gup-h55e.c.youtube.com

Video
Format : AVC
Format/Info : Advanced Video Codec
Format profile : Main@L3.0
Format settings, CABAC : Yes
Format settings, ReFrames : 3 frames
Format settings, GOP : M=1, N=25
Codec ID : 7
Duration : 2h 45mn
Bit rate : 941 Kbps
Width : 854 pixels
Height : 366 pixels
Display aspect ratio : 2.35:1
Frame rate mode : Constant
Frame rate : 25.000 fps
Color space : YUV
Chroma subsampling : 4:2:0
Bit depth : 8 bits
Scan type : Progressive
Bits/(Pixel*Frame) : 0.120
Stream size : 1.09 GiB (90%)

Audio
Format : AAC
Format/Info : Advanced Audio Codec
Format profile : LC
Codec ID : 10
Duration : 2h 45mn
Bit rate : 96.7 Kbps
Channel(s) : 2 channels
Channel positions : Front: L R
Sampling rate : 44.1 KHz
Compression mode : Lossy
Stream size : 114 MiB (9%)